<?xml version="1.0" standalone="no"?>
<!DOCTYPE svg PUBLIC "-//W3C//DTD SVG 1.1//EN" "http://www.w3.org/Graphics/SVG/1.1/DTD/svg11.dtd" >
<svg xmlns="http://www.w3.org/2000/svg">
<metadata>Generated by IcoMoon</metadata>
<defs>
<font id="icomoon" horiz-adv-x="1024">
<font-face units-per-em="1024" ascent="960" descent="-64" />
<missing-glyph horiz-adv-x="1024" />
<glyph unicode="&#x20;" horiz-adv-x="512" d="" />
<glyph unicode="&#xe900;" glyph-name="location-24" d="M491.221 431.787c-90.325 0-163.627 73.771-163.627 164.779 0 91.093 73.301 164.821 163.627 164.821s163.627-73.771 163.627-164.821c0-90.965-73.301-164.779-163.627-164.779zM491.221 960c-200.021 0-362.155-163.285-362.155-364.757 0-190.293 164.011-435.755 273.536-555.264 40.917-44.587 88.576-104.704 88.576-104.704s51.2 60.459 95.104 106.368c109.44 114.517 267.051 344.448 267.051 553.6 0 201.472-162.133 364.757-362.112 364.757z" />
<glyph unicode="&#xe901;" glyph-name="dot-circle-o" d="M658.286 448q0-60.571-42.857-103.429t-103.429-42.857-103.429 42.857-42.857 103.429 42.857 103.429 103.429 42.857 103.429-42.857 42.857-103.429zM512 758.857q-84.571 0-156-41.714t-113.143-113.143-41.714-156 41.714-156 113.143-113.143 156-41.714 156 41.714 113.143 113.143 41.714 156-41.714 156-113.143 113.143-156 41.714zM950.857 448q0-119.429-58.857-220.286t-159.714-159.714-220.286-58.857-220.286 58.857-159.714 159.714-58.857 220.286 58.857 220.286 159.714 159.714 220.286 58.857 220.286-58.857 159.714-159.714 58.857-220.286z" />
<glyph unicode="&#xe902;" glyph-name="flag" d="M182.857 813.714q0-41.143-36.571-62.857v-723.429q0-7.429-5.429-12.857t-12.857-5.429h-36.571q-7.429 0-12.857 5.429t-5.429 12.857v723.429q-36.571 21.714-36.571 62.857 0 30.286 21.429 51.714t51.714 21.429 51.714-21.429 21.429-51.714zM1024 777.143v-436q0-14.286-7.143-22t-22.571-15.714q-122.857-66.286-210.857-66.286-34.857 0-70.571 12.571t-62 27.429-66 27.429-81.429 12.571q-109.714 0-265.143-83.429-9.714-5.143-18.857-5.143-14.857 0-25.714 10.857t-10.857 25.714v424q0 18.286 17.714 31.429 12 8 45.143 24.571 134.857 68.571 240.571 68.571 61.143 0 114.286-16.571t125.143-50.286q21.714-10.857 50.286-10.857 30.857 0 67.143 12t62.857 26.857 50.286 26.857 31.143 12q14.857 0 25.714-10.857t10.857-25.714z" />
<glyph unicode="&#xe903;" glyph-name="relatedservices_website" d="M1006.277 920.615h-990.523c-7.877 0-17.723-7.877-17.723-17.723v-909.785c0-7.877 7.877-17.723 17.723-17.723h990.523c7.877 0 17.723 7.877 17.723 17.723v177.231c0 7.877-7.877 17.723-17.723 17.723s-17.723-7.877-17.723-17.723v-159.508h-959.015v744.369h959.015v-515.938c0-7.877 7.877-17.723 17.723-17.723s17.723 7.877 17.723 17.723v667.569c0 3.938-7.877 13.785-17.723 13.785zM31.508 887.138h602.585v-98.462h-602.585v98.462zM667.569 786.708v102.4h320.985v-98.462h-320.985v-3.938zM831.015 853.662c-7.877 0-17.723-7.877-17.723-17.723 0-7.877 7.877-17.723 17.723-17.723s17.723 7.877 17.723 17.723c-1.969 7.877-9.846 17.723-17.723 17.723zM742.4 853.662c-7.877 0-17.723-7.877-17.723-17.723 0-7.877 7.877-17.723 17.723-17.723s17.723 7.877 17.723 17.723c0 7.877-9.846 17.723-17.723 17.723zM919.631 853.662c-7.877 0-17.723-7.877-17.723-17.723 0-7.877 7.877-17.723 17.723-17.723 7.877 0 19.692 7.877 19.692 17.723 0 7.877-9.846 17.723-19.692 17.723zM324.923 467.692c5.908 0 11.815 5.908 13.785 11.815l37.415 128c1.969 7.877-1.969 17.723-11.815 19.692-7.877 1.969-17.723-1.969-19.692-11.815l-25.6-92.554-25.6 43.323c-1.969 5.908-7.877 7.877-13.785 7.877s-11.815-1.969-13.785-7.877l-25.6-43.323-25.6 92.554c-5.908 11.815-13.785 13.785-23.631 13.785-7.877-1.969-13.785-11.815-11.815-19.692l37.415-128c1.969-5.908 7.877-11.815 13.785-11.815 0 0 0 0 1.969 0 5.908 0 11.815 1.969 13.785 7.877l31.508 53.169 31.508-53.169c0-7.877 9.846-9.846 15.754-9.846zM448.985 467.692v0c7.877 0 13.785 1.969 17.723 7.877l31.508 53.169 31.508-53.169c1.969-5.908 7.877-7.877 17.723-7.877 5.908 0 11.815 5.908 13.785 11.815l37.415 128c1.969 7.877-1.969 17.723-11.815 19.692-7.877 1.969-17.723-1.969-19.692-11.815l-25.6-92.554-25.6 43.323c-1.969 5.908-7.877 7.877-13.785 7.877s-11.815-1.969-13.785-7.877l-31.508-41.354-25.6 92.554c-1.969 7.877-11.815 11.815-19.692 11.815-7.877-1.969-13.785-11.815-11.815-19.692l37.415-128c0-7.877 5.908-11.815 11.815-13.785zM801.477 629.169c-7.877 1.969-17.723-1.969-19.692-11.815l-25.6-92.554-25.6 43.323c-1.969 5.908-7.877 7.877-13.785 7.877s-11.815-1.969-13.785-7.877l-25.6-43.323-25.6 92.554c-1.969 7.877-11.815 13.785-19.692 11.815s-13.785-11.815-11.815-19.692l37.415-128c1.969-5.908 7.877-11.815 13.785-11.815s11.815 1.969 17.723 7.877l31.508 53.169 31.508-53.169c1.969-5.908 7.877-7.877 13.785-7.877 0 0 0 0 1.969 0 5.908 0 11.815 5.908 13.785 11.815l37.415 128c-1.969 5.908-7.877 17.723-17.723 19.692zM299.323 375.138c0 7.877-7.877 17.723-17.723 17.723h-88.615c-7.877 0-17.723-7.877-17.723-17.723v-90.585c0-7.877 7.877-17.723 17.723-17.723h88.615c7.877 0 17.723 7.877 17.723 17.723v90.585zM263.877 302.277h-53.169v55.138h53.169v-55.138zM281.6 235.323h-88.615c-7.877 0-17.723-7.877-17.723-17.723v-90.585c0-7.877 7.877-17.723 17.723-17.723h88.615c7.877 0 17.723 7.877 17.723 17.723v90.585c0 9.846-9.846 17.723-17.723 17.723zM263.877 144.738h-53.169v55.138h53.169v-55.138zM799.508 345.6h-64.985c-7.877 0-17.723-7.877-17.723-17.723s7.877-17.723 17.723-17.723h64.985c7.877 0 17.723 7.877 17.723 17.723 0 11.815-9.846 17.723-17.723 17.723zM667.569 345.6h-320.985c-7.877 0-17.723-7.877-17.723-17.723s7.877-17.723 17.723-17.723h320.985c7.877 0 17.723 7.877 17.723 17.723 0 11.815-7.877 17.723-17.723 17.723zM799.508 192h-64.985c-7.877 0-17.723-7.877-17.723-17.723s7.877-17.723 17.723-17.723h64.985c7.877 0 17.723 7.877 17.723 17.723s-9.846 17.723-17.723 17.723zM667.569 192h-320.985c-7.877 0-17.723-7.877-17.723-17.723s7.877-17.723 17.723-17.723h320.985c7.877 0 17.723 7.877 17.723 17.723s-7.877 17.723-17.723 17.723z" />
<glyph unicode="&#xe904;" glyph-name="relatedservices_install" d="M322.133 514.133c0 8.533-8.533 17.067-17.067 17.067h-64c-8.533 0-17.067-8.533-17.067-17.067v-258.133c0-8.533 8.533-17.067 17.067-17.067s17.067 8.533 17.067 17.067v241.067h46.933c10.667 4.267 17.067 8.533 17.067 17.067zM354.133 514.133c0-8.533 8.533-17.067 17.067-17.067h394.667v-241.067c0-8.533 8.533-17.067 17.067-17.067s17.067 8.533 17.067 17.067v258.133c0 8.533-8.533 17.067-17.067 17.067h-413.867c-8.533 0-14.933-4.267-14.933-17.067zM889.6 855.467l-96 100.267c-6.4 2.133-8.533 6.4-12.8 6.4h-640c-6.4 0-12.8-8.533-12.8-17.067v-750.933c0-8.533 8.533-17.067 17.067-17.067h733.867c8.533 0 17.067 8.533 17.067 17.067v652.8c-2.133 0-2.133 6.4-6.4 8.533zM341.333 928h151.467v-226.133c0-8.533 8.533-17.067 17.067-17.067h121.6c8.533 0 17.067 8.533 17.067 17.067v174.933c0 8.533-8.533 17.067-17.067 17.067s-17.067-8.533-17.067-17.067v-162.133h-89.6v213.333h151.467v-275.2h-339.2v275.2zM861.867 209.067h-704v721.067h149.333v-292.267c0-8.533 8.533-17.067 17.067-17.067h369.067c8.533 0 17.067 8.533 17.067 17.067v292.267h64l89.6-91.733v-629.333h-2.133zM714.667 339.2h-409.6c-8.533 0-17.067-8.533-17.067-17.067s8.533-14.933 17.067-14.933h409.6c8.533 0 17.067 8.533 17.067 17.067s-8.533 14.933-17.067 14.933zM714.667 405.333h-409.6c-8.533 0-17.067-8.533-17.067-17.067s8.533-17.067 17.067-17.067h409.6c8.533 0 17.067 8.533 17.067 17.067s-8.533 17.067-17.067 17.067zM699.733 61.867l-27.733-14.933v78.933c0 8.533-8.533 17.067-17.067 17.067s-17.067-8.533-17.067-17.067v-93.867l-128-59.733-128 59.733v93.867c0 8.533-8.533 17.067-17.067 17.067s-17.067-8.533-17.067-17.067v-78.933l-27.733 14.933c-8.533 2.133-17.067 0-21.333-8.533-2.133-8.533 0-17.067 8.533-23.467l194.133-91.733c2.133 0 6.4-2.133 6.4-2.133 2.133 0 6.4 0 6.4 2.133l194.133 91.733c8.533 2.133 10.667 14.933 8.533 23.467s-8.533 12.8-17.067 8.533z" />
<glyph unicode="&#xe905;" glyph-name="relatedservices_customization" d="M512 475.569c-57.108 0-102.4-49.231-102.4-110.277s45.292-110.277 102.4-110.277 102.4 49.231 102.4 110.277c0 57.108-45.292 110.277-102.4 110.277zM512 288.492c-37.415 0-68.923 33.477-68.923 72.862s31.508 72.862 68.923 72.862c37.415 0 68.923-33.477 68.923-72.862s-31.508-72.862-68.923-72.862zM766.031 426.338h-76.8c-1.969 9.846-5.908 17.723-11.815 27.569l53.169 57.108c5.908 5.908 5.908 15.754 1.969 21.662-17.723 27.569-39.385 49.231-64.985 70.892-5.908 5.908-13.785 3.938-19.692-3.938l-51.2-55.138c-7.877 3.938-17.723 9.846-25.6 11.815v78.769c0 9.846-5.908 15.754-13.785 17.723-13.785 3.938-31.508 3.938-45.292 3.938s-31.508 0-45.292-3.938c-7.877 0-13.785-9.846-13.785-17.723v-82.708c-7.877-3.938-17.723-5.908-25.6-11.815l-53.169 57.108c-5.908 5.908-13.785 5.908-19.692 3.938-25.6-17.723-45.292-43.323-64.985-70.892-5.908-5.908-1.969-15.754 1.969-21.662l53.169-57.108c-1.969-9.846-7.877-17.723-11.815-27.569h-74.831c-7.877 0-13.785-5.908-17.723-15.754-1.969-15.754-1.969-33.477-1.969-49.231s0-33.477 1.969-49.231c0-9.846 7.877-15.754 17.723-15.754h76.8c1.969-9.846 5.908-17.723 11.815-27.569l-53.169-57.108c-5.908-5.908-5.908-15.754-1.969-21.662 17.723-27.569 39.385-49.231 64.985-70.892 5.908-5.908 13.785-3.938 19.692 3.938l53.169 57.108c7.877-3.938 17.723-9.846 25.6-11.815v-82.708c0-9.846 5.908-15.754 13.785-17.723 13.785-3.938 31.508-3.938 45.292-3.938s31.508 0 45.292 3.938c7.877 0 13.785 9.846 13.785 17.723v82.708c7.877 3.938 17.723 5.908 25.6 11.815l53.169-57.108c5.908-5.908 13.785-5.908 19.692-3.938 25.6 17.723 45.292 43.323 64.985 70.892 5.908 5.908 1.969 15.754-1.969 21.662l-53.169 57.108c1.969 9.846 7.877 17.723 11.815 27.569h76.8c7.877 0 13.785 5.908 17.723 15.754 1.969 15.754 1.969 33.477 1.969 49.231s0 33.477-1.969 49.231c-7.877 11.815-13.785 17.723-21.662 17.723zM750.277 335.754h-74.831c-7.877 0-13.785-5.908-17.723-11.815-1.969-15.754-7.877-29.538-17.723-43.323-1.969-5.908-1.969-15.754 1.969-21.662l51.2-55.138c-11.815-15.754-23.631-27.569-37.415-39.385l-49.231 55.138c-5.908 5.908-13.785 5.908-19.692 3.938-11.815-9.846-25.6-15.754-39.385-17.723-7.877-3.938-11.815-9.846-11.815-17.723v-78.769c-17.723-3.938-33.477-3.938-53.169 0v78.769c0 9.846-5.908 15.754-11.815 17.723-13.785 3.938-27.569 9.846-39.385 17.723-5.908 3.938-13.785 3.938-19.692-3.938l-51.2-55.138c-13.785 11.815-25.6 23.631-37.415 39.385l51.2 55.138c5.908 5.908 5.908 15.754 1.969 21.662-7.877 11.815-13.785 27.569-17.723 43.323-1.969 9.846-7.877 11.815-17.723 11.815h-74.831c0 9.846-1.969 17.723-1.969 27.569s0 17.723 1.969 27.569h74.831c7.877 0 13.785 5.908 17.723 11.815 1.969 15.754 7.877 29.538 17.723 43.323 1.969 5.908 1.969 15.754-1.969 21.662l-51.2 55.138c11.815 15.754 23.631 27.569 37.415 39.385l51.2-55.138c5.908-5.908 13.785-5.908 19.692-3.938 11.815 9.846 25.6 15.754 39.385 17.723 7.877 3.938 11.815 9.846 11.815 17.723v82.708c17.723 3.938 33.477 3.938 53.169 0v-78.769c0-9.846 5.908-15.754 11.815-17.723 13.785-3.938 27.569-9.846 39.385-17.723 5.908-3.938 13.785-3.938 19.692 3.938l51.2 55.138c13.785-11.815 25.6-23.631 37.415-39.385l-51.2-55.138c-5.908-5.908-5.908-15.754-1.969-21.662 7.877-11.815 13.785-27.569 17.723-43.323 1.969-9.846 7.877-11.815 17.723-11.815h74.831c0-9.846 1.969-17.723 1.969-27.569 0-11.815 0-23.631-3.938-31.508zM935.385 843.815h-358.4c-7.877 0-17.723-9.846-17.723-17.723 0-9.846 7.877-17.723 17.723-17.723h358.4c31.508 0 53.169-27.569 53.169-57.108v-21.662c-13.785 11.815-33.477 21.662-53.169 21.662h-407.631v76.8c0 51.2-39.385 94.523-88.615 94.523h-352.492c-49.231 0-88.615-43.323-88.615-94.523v-832.985c0-9.846 7.877-17.723 17.723-17.723h990.523c7.877 0 17.723 9.846 17.723 17.723v756.185c0 49.231-39.385 92.554-88.615 92.554zM990.523 10.831h-959.015v813.292c0 33.477 25.6 61.046 57.108 61.046h352.492c31.508 0 53.169-27.569 53.169-57.108v-94.523c0-9.846 7.877-17.723 17.723-17.723h423.385c31.508 0 53.169-27.569 53.169-57.108v-647.877h1.969z" />
<glyph unicode="&#xe906;" glyph-name="uniE906" d="M512 960c282.971 0 512-229.029 512-512s-229.029-512-512-512-512 229.089-512 512 229.029 512 512 512z" />
<glyph unicode="&#xe907;" glyph-name="uniE907" d="M701.803 643.155l-279.566-279.87-100.040 100.040c-17.636 17.636-45.854 17.636-63.491 0s-17.636-45.854 0-63.491l131.968-131.968c8.636-8.636 20.251-13.318 31.563-13.318s22.927 4.318 31.563 13.318l311.433 311.433c17.636 17.636 17.636 45.854 0 63.491-17.211 17.94-45.794 17.94-63.43 0.365z" />
<glyph unicode="&#xe908;" glyph-name="dashboard_settings" d="M896.692 478.443l127.308-33.211c0-55.351-13.838-110.703-30.443-157.751l-132.843 13.838c-13.838-24.908-24.908-52.584-41.514-71.957l77.492-110.703c-33.211-41.514-77.492-77.492-124.541-102.4l-88.562 94.097c-24.908-13.838-52.584-22.141-80.259-30.443l-8.303-132.843c-24.908-5.535-55.351-8.303-80.259-8.303s-55.351 5.535-80.259 8.303l-8.303 132.843c-30.443 5.535-55.351 16.605-80.259 30.443l-94.097-94.097c-47.049 30.443-88.562 63.654-124.541 102.4l77.492 110.703c-16.605 22.141-30.443 47.049-41.514 71.957l-132.843-13.838c-13.838 47.049-24.908 102.4-24.908 157.751l127.308 33.211c0 30.443 8.303 55.351 13.838 85.795l-107.935 71.957c22.141 52.584 47.049 96.865 80.259 141.146l119.005-60.886c22.141 24.908 41.514 41.514 63.654 60.886l-33.211 127.308c47.049 24.908 96.865 47.049 149.449 55.351l55.351-124.541c13.838 0 30.443 5.535 41.514 5.535s30.443 0 41.514-5.535l55.351 124.541c55.351-8.303 107.935-30.443 149.449-55.351l-33.211-127.308c24.908-16.605 47.049-33.211 63.654-55.351l119.005 60.886c33.211-41.514 60.886-88.562 80.259-141.146l-110.703-77.492c8.303-30.443 11.070-55.351 16.605-85.795zM520.303 580.843c-77.492 0-135.611-63.654-135.611-135.611 0-77.492 60.886-135.611 135.611-135.611 77.492 0 135.611 63.654 135.611 135.611 0 74.724-58.119 135.611-135.611 135.611z" />
<glyph unicode="&#xe909;" glyph-name="dashboard_pro" d="M34.816 587.264c10.24 18.432 24.576 34.816 43.008 51.2s36.864 28.672 61.44 40.96c24.576 12.288 47.104 22.528 73.728 30.72-16.384-30.72-34.816-65.536-53.248-106.496s-36.864-86.016-59.392-135.168c-18.432-51.2-36.864-106.496-53.248-167.936-16.384-59.392-28.672-126.976-38.912-196.608-2.048-16.384 0-24.576 2.048-30.72 6.144-4.096 10.24-6.144 18.432 0 8.192 4.096 16.384 12.288 24.576 24.576s16.384 28.672 18.432 47.104c10.24 45.056 24.576 92.16 38.912 141.312 16.384 51.2 34.816 100.352 55.296 151.552s45.056 100.352 69.632 151.552c28.672 47.104 55.296 94.208 81.92 139.264 34.816 0 65.536-4.096 92.16-16.384s45.056-30.72 53.248-63.488c8.192-28.672 8.192-57.344 0-86.016s-20.48-53.248-36.864-79.872c-34.816 0-65.536-4.096-100.352-10.24s-63.488-12.288-90.112-24.576c-26.624-12.288-45.056-24.576-61.44-45.056-12.288-18.432-18.432-36.864-10.24-63.488 6.144-22.528 20.48-34.816 45.056-36.864 26.624-6.144 55.296-4.096 88.064 10.24 34.816 10.24 69.632 30.72 106.496 57.344 36.864 28.672 71.68 63.488 100.352 104.448 20.48 30.72 34.816 63.488 45.056 98.304 8.192 34.816 8.192 71.68 0 110.592-8.192 30.72-24.576 59.392-47.104 79.872-24.576 18.432-51.2 34.816-81.92 45.056-28.672 16.384-63.488 18.432-100.352 18.432s-73.728-6.144-108.544-16.384c-36.864-10.24-69.632-22.528-100.352-36.864-28.672-18.432-53.248-36.864-73.728-63.488-18.432-24.576-28.672-51.2-34.816-81.92-2.048-30.72 2.048-63.488 20.48-98.304-2.048 18.432 2.048 36.864 12.288 57.344zM221.184 388.608c8.192 10.24 20.48 16.384 36.864 22.528s36.864 12.288 59.392 18.432c24.576 6.144 47.104 10.24 71.68 10.24-18.432-16.384-34.816-30.72-53.248-45.056-18.432-12.288-36.864-22.528-53.248-28.672s-32.768-12.288-43.008-12.288c-12.288 0-18.432 4.096-24.576 10.24-4.096 8.192-2.048 18.432 6.144 24.576zM696.32 278.016c-10.24-10.24-18.432-18.432-28.672-28.672s-18.432-12.288-26.624-18.432c-8.192-4.096-12.288-4.096-16.384 0-2.048 4.096-6.144 12.288-2.048 22.528 2.048 12.288 6.144 24.576 10.24 40.96 6.144 16.384 10.24 30.72 18.432 51.2 8.192 18.432 16.384 34.816 24.576 53.248 8.192 16.384 18.432 34.816 26.624 47.104 8.192 16.384 18.432 28.672 26.624 36.864 2.048 4.096 2.048 6.144 0 10.24s-6.144 6.144-8.192 10.24c-2.048 4.096-6.144 6.144-10.24 10.24-6.144 0-8.192 0-8.192 0-2.048-4.096-8.192-4.096-12.288-6.144-6.144-4.096-10.24-4.096-18.432-6.144-6.144 0-10.24 0-16.384 0s-10.24 4.096-12.288 10.24c2.048 10.24 8.192 18.432 10.24 28.672s6.144 18.432 6.144 24.576c0 10.24-2.048 16.384-6.144 22.528-2.048 6.144-8.192 12.288-18.432 16.384-10.24 6.144-24.576 4.096-34.816-6.144-12.288-10.24-20.48-22.528-26.624-36.864-6.144-16.384-8.192-30.72-8.192-51.2 2.048-18.432 10.24-30.72 26.624-40.96-2.048-6.144-8.192-18.432-16.384-34.816s-16.384-34.816-26.624-53.248c-10.24-18.432-20.48-40.96-32.768-63.488-10.24-22.528-24.576-45.056-34.816-65.536-10.24-22.528-20.48-40.96-32.768-57.344-10.24-18.432-18.432-30.72-24.576-40.96s-8.192-16.384-8.192-22.528c0-6.144 0-12.288 2.048-12.288 2.048-4.096 8.192-4.096 12.288 0 6.144 4.096 12.288 10.24 20.48 22.528 6.144 10.24 12.288 22.528 20.48 36.864 8.192 16.384 18.432 34.816 28.672 57.344s20.48 40.96 34.816 65.536c10.24 22.528 20.48 45.056 32.768 65.536 10.24 22.528 18.432 36.864 26.624 53.248s12.288 28.672 16.384 34.816c10.24-4.096 18.432-4.096 24.576-4.096 8.192 0 12.288 0 20.48 0-32.768-45.056-59.392-86.016-77.824-122.88s-32.768-71.68-36.864-104.448c-8.192-30.72-8.192-53.248-2.048-71.68s12.288-28.672 26.624-28.672c12.288 0 28.672 6.144 51.2 22.528 18.432 16.384 36.864 30.72 55.296 51.2 18.432 18.432 34.816 36.864 47.104 57.344 12.288 18.432 24.576 34.816 28.672 45.056 6.144 10.24 8.192 18.432 8.192 24.576s-2.048 10.24-6.144 10.24c-2.048 0-8.192 0-12.288-4.096-6.144-4.096-12.288-10.24-18.432-22.528-6.144-10.24-14.336-20.48-22.528-28.672zM954.368 280.064c-10.24-4.096-18.432-4.096-26.624 4.096 12.288 28.672 20.48 53.248 28.672 79.872 8.192 24.576 8.192 45.056 2.048 57.344 8.192 22.528 10.24 36.864 6.144 51.2-2.048 12.288-10.24 22.528-20.48 28.672s-24.576 10.24-36.864 10.24c-16.384 0-28.672-6.144-45.056-12.288-20.48-10.24-43.008-28.672-63.488-51.2-20.48-24.576-43.008-59.392-63.488-104.448-12.288-28.672-20.48-57.344-26.624-81.92s-6.144-47.104-2.048-65.536c2.048-18.432 8.192-34.816 16.384-47.104s18.432-22.528 34.816-24.576c12.288-4.096 26.624-4.096 38.912 4.096 12.288 6.144 28.672 12.288 43.008 24.576s26.624 24.576 38.912 40.96 24.576 34.816 34.816 51.2c8.192-4.096 16.384-6.144 26.624-4.096 10.24 0 18.432 4.096 28.672 6.144 10.24 4.096 18.432 10.24 26.624 18.432 8.192 10.24 16.384 18.432 20.48 30.72 6.144 10.24 8.192 18.432 8.192 24.576s-2.048 10.24-6.144 12.288c-2.048 0-8.192 0-12.288-4.096-6.144-4.096-10.24-10.24-18.432-22.528-14.336-14.336-22.528-22.528-32.768-26.624zM784.384 230.912c-2.048 10.24-6.144 22.528-6.144 34.816 0 16.384 2.048 30.72 8.192 47.104s10.24 34.816 16.384 51.2c10.24 24.576 24.576 47.104 36.864 65.536 16.384 18.432 32.768 30.72 45.056 40.96 10.24 10.24 18.432 10.24 26.624 10.24s12.288-4.096 16.384-10.24c2.048-4.096 6.144-10.24 6.144-16.384s-6.144-12.288-12.288-18.432c-8.192-6.144-18.432-16.384-26.624-30.72-8.192-16.384-16.384-28.672-18.432-47.104-6.144-16.384-8.192-30.72-8.192-51.2 0-16.384 6.144-30.72 12.288-40.96-2.048-6.144-8.192-12.288-16.384-18.432s-12.288-12.288-20.48-18.432-16.384-10.24-24.576-12.288c-8.192-4.096-16.384-4.096-20.48 0-6.144-2.048-12.288 4.096-14.336 14.336z" />
<glyph unicode="&#xe90a;" glyph-name="dashboard_manager" d="M593.92 872.96l-12.8 15.36c-7.68 15.36-23.040 28.16-38.4 33.28h-414.72v-5.12c-23.040 0-43.52-20.48-53.76-38.4h-5.12l-69.12-102.4h660.48l-66.56 97.28zM0 663.040h1024v-688.64h-1024v688.64zM0 775.68h1024v-71.68h-1024v71.68z" />
<glyph unicode="&#xe90b;" glyph-name="dashboard_listings" d="M1024 445.232l-99.632-99.632-8.303-409.6h-805.362l-8.303 409.6-102.4 102.4 509.232 509.232 514.768-512zM168.822 409.254l-2.768-420.67h221.405v251.849h246.314v-251.849h221.405v420.67l-348.714 343.178-337.643-343.178zM639.308 323.459v0h-251.849v246.314h246.314v-246.314h5.535zM583.957 517.189h-141.146v-135.611h135.611v135.611h5.535z" />
<glyph unicode="&#xe90c;" glyph-name="dashboard_addnew" d="M924.368 348.368l-8.303 8.303v-420.67h-805.362v420.67l-8.303-8.303-102.4 102.4 509.232 509.232 514.768-512-99.632-99.632zM860.714 412.022l-345.946 340.411-343.178-343.178-2.768-420.67h694.659v423.438zM473.254 517.189h80.259v-166.054h166.054v-85.795h-166.054v-166.054h-85.795v166.054h-163.286v85.795h166.054v166.054z" />
<glyph unicode="&#xe90d;" glyph-name="dashboard_agent" horiz-adv-x="986" d="M620.037 363.45l366.385-187.89v-239.56h-986.422v234.862l371.083 187.89v93.945c-37.578 61.064-61.064 122.128-61.064 155.009 0 18.789 0 37.578 4.697 56.367 0 14.092 0 37.578 9.394 61.064l4.697 70.459 9.394 23.486 37.578 14.092c0 0 0 0 0 0l-18.789 32.881 4.697 23.486h23.486l18.789 14.092 23.486 4.697 4.697-14.092c28.183 18.789 56.367 32.881 93.945 42.275l-4.697-18.789 84.55 42.275-18.789-42.275 23.486-37.578 4.697-14.092h14.092l4.697-9.394 46.972-65.761-32.881-28.183 14.092-14.092 42.275-32.881-4.697-18.789-23.486-32.881c4.697-18.789 4.697-37.578 4.697-56.367 0-32.881-23.486-98.642-61.064-155.009v-89.248z" />
<glyph unicode="&#xe90e;" glyph-name="address" horiz-adv-x="973" d="M489.244 539.022c62.578 0 113.778 51.2 113.778 113.778s-51.2 113.778-113.778 113.778-113.778-51.2-113.778-113.778c0-62.578 51.2-113.778 113.778-113.778zM489.244 732.444c45.511 0 79.644-34.133 79.644-79.644s-34.133-79.644-79.644-79.644c-45.511 0-79.644 34.133-79.644 79.644-5.689 45.511 34.133 79.644 79.644 79.644zM483.556 72.533l250.311 358.4c91.022 125.156 79.644 329.956-28.444 438.044-56.889 56.889-136.533 91.022-221.867 91.022s-159.289-34.133-221.867-91.022c-108.089-108.089-119.467-312.889-28.444-438.044l250.311-358.4zM284.444 846.222c56.889 51.2 125.156 79.644 199.111 79.644s142.222-28.444 199.111-79.644c96.711-96.711 108.089-284.444 22.756-398.222l-221.867-324.267-221.867 324.267c-85.333 113.778-73.956 301.511 22.756 398.222zM682.667 260.267c-11.378 0-17.067-5.689-17.067-17.067s5.689-17.067 17.067-17.067c170.667-22.756 261.689-73.956 261.689-108.089 0-45.511-170.667-153.6-455.111-153.6s-455.111 108.089-455.111 153.6c0 34.133 91.022 85.333 261.689 108.089 11.378 0 17.067 11.378 17.067 17.067 0 11.378-11.378 17.067-17.067 17.067-170.667-22.756-290.133-79.644-290.133-136.533-5.689-68.267 159.289-187.733 483.556-187.733s489.244 119.467 489.244 187.733c-5.689 62.578-125.156 119.467-295.822 136.533z" />
<glyph unicode="&#xe90f;" glyph-name="uniE90F" d="M256 960h512c140.8 0 256-115.2 256-256v-512c0-140.8-115.2-256-256-256h-512c-140.8 0-256 115.2-256 256v512c0 140.8 115.2 256 256 256z" />
<glyph unicode="&#xe910;" glyph-name="uniE910" d="M787.2 601.6l-51.2 51.2c-6.4 6.4-12.8 12.8-25.6 12.8s-19.2-6.4-25.6-12.8l-230.4-230.4-115.2 121.6c-6.4 6.4-19.2 6.4-25.6 6.4-12.8 0-19.2-6.4-25.6-12.8l-51.2-44.8c-6.4-6.4-12.8-19.2-12.8-25.6 0-12.8 6.4-19.2 12.8-25.6l198.4-198.4c6.4-6.4 12.8-12.8 25.6-12.8s19.2 6.4 25.6 12.8l307.2 307.2c6.4 6.4 12.8 12.8 12.8 25.6-6.4 12.8-12.8 19.2-19.2 25.6z" />
<glyph unicode="&#xe911;" glyph-name="copy" horiz-adv-x="896" d="M672 960c-6.4 0-384 0-384 0-70.4 0-128-64-128-128h-38.4c-64 0-121.6-64-121.6-128v-640c0-64 57.6-128 128-128h480c70.4 0 128 64 128 128h32c70.4 0 128 64 128 128v512l-224 256zM608 0h-480c-32 0-64 32-64 64v640c0 32 25.6 64 64 64h32v-576c0-64 57.6-128 128-128h384c0-32-32-64-64-64zM832 192c0-32-32-64-64-64h-480c-32 0-64 32-64 64v640c0 32 32 64 64 64h320c0-76.8 0-128 0-128 0-64 57.6-128 128-128 0 0 32 0 96 0v-448zM736 704c-32 0-64 64-64 96 0 0 0 32 0 96v0l160-192h-96zM672 512h-288c-19.2 0-32-12.8-32-32s12.8-32 32-32h288c19.2 0 32 12.8 32 32s-12.8 32-32 32zM672 352h-288c-19.2 0-32-12.8-32-32s12.8-32 32-32h288c19.2 0 32 12.8 32 32s-12.8 32-32 32z" />
<glyph unicode="&#xe912;" glyph-name="delete" horiz-adv-x="832" d="M576 64c19.2 0 32 12.8 32 32v384c0 19.2-12.8 32-32 32s-32-12.8-32-32v-384c0-19.2 12.8-32 32-32zM768 832h-192v64c0 38.4-25.6 64-64 64h-192c-38.4 0-64-25.6-64-64v-64h-192c-38.4 0-64-25.6-64-64v-64c0-38.4 25.6-64 64-64v-576c0-70.4 57.6-128 128-128h448c70.4 0 128 57.6 128 128v576c38.4 0 64 25.6 64 64v64c0 38.4-25.6 64-64 64zM320 864c0 19.2 12.8 32 32 32h128c19.2 0 32-12.8 32-32v-32c-32 0-192 0-192 0v32zM704 64c0-38.4-25.6-64-64-64h-448c-38.4 0-64 25.6-64 64v576h576v-576zM736 704h-640c-19.2 0-32 12.8-32 32s12.8 32 32 32h640c19.2 0 32-12.8 32-32s-12.8-32-32-32zM256 64c19.2 0 32 12.8 32 32v384c0 19.2-12.8 32-32 32s-32-12.8-32-32v-384c0-19.2 12.8-32 32-32zM416 64c19.2 0 32 12.8 32 32v384c0 19.2-12.8 32-32 32s-32-12.8-32-32v-384c0-19.2 12.8-32 32-32z" />
<glyph unicode="&#xe913;" glyph-name="featured" horiz-adv-x="1081" d="M216.178-64c-5.689 0-5.689 0-11.378 5.689s-11.378 11.378-5.689 17.067l62.578 347.022-256 244.622c-5.689 5.689-5.689 11.378-5.689 17.067s5.689 11.378 17.067 11.378l352.711 51.2 159.289 312.889c0 11.378 5.689 17.067 11.378 17.067v0c5.689 0 11.378-5.689 17.067-11.378l159.289-312.889 352.711-51.2c5.689 0 11.378-5.689 17.067-11.378 0-5.689 0-17.067-5.689-17.067l-256-244.622 62.578-347.022c0-5.689 0-17.067-5.689-17.067-11.378-11.378-22.756-11.378-28.444-11.378l-312.889 164.978-312.889-164.978c-5.689 0-5.689 0-11.378 0zM62.578 550.4l233.244-227.556c5.689-5.689 5.689-11.378 5.689-17.067l-56.889-318.578 290.133 147.911c5.689 5.689 11.378 5.689 17.067 0l290.133-147.911-56.889 318.578c0 5.689 0 11.378 5.689 17.067l233.244 227.556-318.578 45.511c-5.689 0-11.378 5.689-17.067 11.378l-147.911 290.133-142.222-290.133c0-5.689-5.689-11.378-17.067-11.378l-318.578-45.511z" />
<glyph unicode="&#xe914;" glyph-name="information" d="M512 960c-283.106 0-512-228.894-512-512s228.894-512 512-512 512 228.894 512 512-228.894 512-512 512zM512-21.835c-259.012 0-469.835 210.824-469.835 469.835s210.824 469.835 469.835 469.835c259.012 0 469.835-210.824 469.835-469.835s-210.824-469.835-469.835-469.835zM481.882 176.941h60.235v301.176h-60.235v-301.176zM481.882 598.588h60.235v120.471h-60.235v-120.471z" />
<glyph unicode="&#xe915;" glyph-name="lock" horiz-adv-x="785" d="M725.333 550.4h-17.067v93.867c0 170.667-136.533 315.733-307.2 315.733 0 0-17.067 0-17.067 0-170.667 0-307.2-145.067-307.2-315.733v-93.867h-17.067c-34.133 0-59.733-34.133-59.733-76.8v-469.333c0-34.133 25.6-68.267 59.733-68.267h674.133c34.133 0 59.733 34.133 59.733 68.267v469.333c-8.533 42.667-34.133 76.8-68.267 76.8zM452.267 243.2v-145.067c0-17.067-17.067-34.133-25.6-34.133h-68.267c-17.067 0-25.6 17.067-25.6 34.133v145.067c-17.067 17.067-25.6 34.133-25.6 59.733 0 42.667 34.133 85.333 76.8 85.333 8.533 0 17.067 0 17.067 0 42.667 0 76.8-42.667 76.8-85.333 0-25.6-8.533-42.667-25.6-59.733zM580.267 550.4h-375.467v93.867c0 102.4 85.333 187.733 187.733 187.733s187.733-85.333 187.733-187.733v-93.867z" />
<glyph unicode="&#xe916;" glyph-name="media" horiz-adv-x="1189" d="M1154.844 903.111c-22.756 11.378-45.511 5.689-62.578-11.378l-233.244-216.178v182.044c0 56.889-45.511 102.4-102.4 102.4h-654.222c-56.889 0-102.4-45.511-102.4-102.4v-483.556c0-56.889 45.511-102.4 102.4-102.4h307.2l-142.222-307.2c-5.689-11.378 0-22.756 11.378-28.444 0 0 5.689 0 11.378 0s17.067 5.689 17.067 11.378l136.533 295.822 136.533-295.822c5.689-5.689 11.378-11.378 17.067-11.378s5.689 0 11.378 0c11.378 5.689 17.067 17.067 11.378 28.444l-142.222 307.2h273.067c56.889 0 108.089 51.2 108.089 108.089v164.978l238.933-227.556c11.378-11.378 22.756-17.067 39.822-17.067 5.689 0 17.067 0 22.756 5.689 22.756 11.378 34.133 28.444 34.133 51.2v494.933c-5.689 22.756-17.067 45.511-39.822 51.2zM813.511 379.733c0-34.133-28.444-68.267-68.267-68.267h-642.844c-34.133 0-56.889 28.444-56.889 56.889v489.244c0 34.133 28.444 62.578 62.578 62.578h648.533c34.133 0 62.578-28.444 62.578-62.578v-477.867zM1149.156 362.667c0-11.378-5.689-11.378-11.378-17.067 0 0-11.378-5.689-17.067 5.689l-261.689 250.311c-5.689 5.689-5.689 5.689-5.689 11.378s0 5.689 5.689 11.378l261.689 238.933c5.689 5.689 5.689 5.689 11.378 5.689 0 0 5.689 0 5.689 0s11.378-5.689 11.378-17.067v-489.244zM381.156 630.044c11.378 22.756 17.067 45.511 17.067 68.267 0 73.956-62.578 136.533-136.533 136.533s-136.533-62.578-136.533-136.533c0-73.956 62.578-136.533 136.533-136.533 34.133 0 68.267 11.378 91.022 34.133l28.444-28.444c5.689 0 11.378-5.689 17.067-5.689s11.378 0 17.067 5.689c5.689 5.689 5.689 22.756 0 28.444l-34.133 34.133zM347.022 664.178l-39.822 39.822c-5.689 5.689-22.756 5.689-28.444 0-11.378-11.378-11.378-22.756 0-28.444l45.511-45.511c-17.067-17.067-39.822-22.756-62.578-22.756-51.2 0-96.711 39.822-96.711 96.711 0 51.2 39.822 96.711 96.711 96.711s96.711-39.822 96.711-96.711c-5.689-17.067-5.689-28.444-11.378-39.822z" />
<glyph unicode="&#xe917;" glyph-name="upload-photo" d="M1016.686 338.286l-146.286 226.743c-14.629 14.629-29.257 29.257-51.2 29.257h-65.829c-7.314 0-14.629-7.314-7.314-21.943l153.6-241.371c0 0 0-7.314-7.314-7.314h-175.543c-7.314 0-14.629-7.314-14.629-14.629-7.314-102.4-87.771-182.857-190.171-182.857s-190.171 80.457-190.171 182.857c0 7.314-7.314 14.629-14.629 14.629h-182.857c-7.314 0-7.314 7.314-7.314 7.314l153.6 241.371c14.629 14.629 7.314 21.943 0 21.943h-65.829c-21.943 0-36.571-14.629-51.2-29.257l-146.286-226.743c-7.314-7.314-7.314-21.943-7.314-36.571v-314.514c0-29.257 21.943-51.2 58.514-51.2h914.286c29.257 0 58.514 21.943 58.514 58.514v307.2c-7.314 14.629-7.314 29.257-14.629 36.571zM373.029 740.571h51.2v-336.457c0-43.886 36.571-87.771 80.457-87.771s80.457 36.571 80.457 87.771v336.457h51.2c14.629 0 29.257 21.943 14.629 36.571l-124.343 175.543c-7.314 7.314-21.943 7.314-29.257 0l-138.971-175.543c-14.629-14.629 0-36.571 14.629-36.571z" />
<glyph unicode="&#xe918;" glyph-name="username" d="M512 448c136.533 0 256 110.933 256 256 0 136.533-110.933 256-256 256s-256-110.933-256-256c0-136.533 110.933-256 256-256zM512 320c-170.667 0-512-85.333-512-256v-128h1024v128c0 170.667-341.333 256-512 256z" />
<glyph unicode="&#xe919;" glyph-name="zzz999" d="M566.705-44.268v546.974h437.563v-546.974h-437.563zM566.705 940.268h437.563v-328.192h-437.563v328.192zM19.732 283.924h437.563v-328.192h-437.563v328.192zM19.732 940.268h437.563v-546.974h-437.563v546.974z" />
<glyph unicode="&#xe91a;" glyph-name="demo-listings" d="M873.813 580.437l-379.563 379.563-76.459-76.459-303.104-300.373 76.459-76.459 303.104 300.373 303.104-300.373zM647.168 307.371c0-51.883-13.653-92.843-43.691-120.149-27.307-27.307-68.267-40.96-120.149-40.96h-101.035v311.296h109.227c49.152 0 87.381-13.653 114.688-38.229 27.307-27.307 40.96-62.805 40.96-111.957zM559.787 304.64c0 27.307-5.461 49.152-16.384 62.805s-27.307 21.845-51.883 21.845h-24.576v-174.763h19.115c24.576 0 43.691 8.192 57.344 21.845s16.384 38.229 16.384 68.267z" />
</font>
</defs>
</svg>
